  0
SECTION
  2
HEADER
  9
$ACADVER
  1
AC1014
  9
$ACADMAINTVER
 70
     9
  9
$DWGCODEPAGE
  3
ANSI_1252
  9
$INSBASE
 10
0.0
 20
0.0
 30
0.0
  9
$EXTMIN
 10
3.382961352510668
 20
3.641649332995601
 30
0.0
  9
$EXTMAX
 10
8.872698307396856
 20
8.040921461900719
 30
0.0
  9
$LIMMIN
 10
0.0
 20
0.0
  9
$LIMMAX
 10
12.0
 20
9.0
  9
$ORTHOMODE
 70
     0
  9
$REGENMODE
 70
     1
  9
$FILLMODE
 70
     1
  9
$QTEXTMODE
 70
     0
  9
$MIRRTEXT
 70
     1
  9
$DRAGMODE
 70
     2
  9
$LTSCALE
 40
1.0
  9
$OSMODE
 70
     0
  9
$ATTMODE
 70
     1
  9
$TEXTSIZE
 40
0.2
  9
$TRACEWID
 40
0.05
  9
$TEXTSTYLE
  7
STANDARD
  9
$CLAYER
  8
0
  9
$CELTYPE
  6
BYLAYER
  9
$CECOLOR
 62
   256
  9
$CELTSCALE
 40
1.0
  9
$DELOBJ
 70
     1
  9
$DISPSILH
 70
     0
  9
$DIMSCALE
 40
1.0
  9
$DIMASZ
 40
0.18
  9
$DIMEXO
 40
0.0625
  9
$DIMDLI
 40
0.38
  9
$DIMRND
 40
0.0
  9
$DIMDLE
 40
0.0
  9
$DIMEXE
 40
0.18
  9
$DIMTP
 40
0.0
  9
$DIMTM
 40
0.0
  9
$DIMTXT
 40
0.18
  9
$DIMCEN
 40
0.09
  9
$DIMTSZ
 40
0.0
  9
$DIMTOL
 70
     0
  9
$DIMLIM
 70
     0
  9
$DIMTIH
 70
     1
  9
$DIMTOH
 70
     1
  9
$DIMSE1
 70
     0
  9
$DIMSE2
 70
     0
  9
$DIMTAD
 70
     0
  9
$DIMZIN
 70
     0
  9
$DIMBLK
  1

  9
$DIMASO
 70
     1
  9
$DIMSHO
 70
     1
  9
$DIMPOST
  1

  9
$DIMAPOST
  1

  9
$DIMALT
 70
     0
  9
$DIMALTD
 70
     2
  9
$DIMALTF
 40
25.4
  9
$DIMLFAC
 40
1.0
  9
$DIMTOFL
 70
     0
  9
$DIMTVP
 40
0.0
  9
$DIMTIX
 70
     0
  9
$DIMSOXD
 70
     0
  9
$DIMSAH
 70
     0
  9
$DIMBLK1
  1

  9
$DIMBLK2
  1

  9
$DIMSTYLE
  2
STANDARD
  9
$DIMCLRD
 70
     0
  9
$DIMCLRE
 70
     0
  9
$DIMCLRT
 70
     0
  9
$DIMTFAC
 40
1.0
  9
$DIMGAP
 40
0.09
  9
$DIMJUST
 70
     0
  9
$DIMSD1
 70
     0
  9
$DIMSD2
 70
     0
  9
$DIMTOLJ
 70
     1
  9
$DIMTZIN
 70
     0
  9
$DIMALTZ
 70
     0
  9
$DIMALTTZ
 70
     0
  9
$DIMFIT
 70
     3
  9
$DIMUPT
 70
     0
  9
$DIMUNIT
 70
     2
  9
$DIMDEC
 70
     2
  9
$DIMTDEC
 70
     2
  9
$DIMALTU
 70
     2
  9
$DIMALTTD
 70
     2
  9
$DIMTXSTY
  7
STANDARD
  9
$DIMAUNIT
 70
     0
  9
$LUNITS
 70
     2
  9
$LUPREC
 70
     4
  9
$SKETCHINC
 40
0.1
  9
$FILLETRAD
 40
0.5
  9
$AUNITS
 70
     0
  9
$AUPREC
 70
     0
  9
$MENU
  1
.
  9
$ELEVATION
 40
0.0
  9
$PELEVATION
 40
0.0
  9
$THICKNESS
 40
0.0
  9
$LIMCHECK
 70
     0
  9
$BLIPMODE
 70
     0
  9
$CHAMFERA
 40
0.5
  9
$CHAMFERB
 40
0.5
  9
$CHAMFERC
 40
1.0
  9
$CHAMFERD
 40
0.0
  9
$SKPOLY
 70
     0
  9
$TDCREATE
 40
2452177.310139930
  9
$TDUPDATE
 40
2452646.393326852
  9
$TDINDWG
 40
0.0013292824
  9
$TDUSRTIMER
 40
0.0013292824
  9
$USRTIMER
 70
     1
  9
$ANGBASE
 50
0.0
  9
$ANGDIR
 70
     0
  9
$PDMODE
 70
     0
  9
$PDSIZE
 40
0.0
  9
$PLINEWID
 40
0.0
  9
$COORDS
 70
     1
  9
$SPLFRAME
 70
     0
  9
$SPLINETYPE
 70
     6
  9
$SPLINESEGS
 70
     8
  9
$ATTDIA
 70
     1
  9
$ATTREQ
 70
     1
  9
$HANDLING
 70
-16383
  9
$HANDSEED
  5
253
  9
$SURFTAB1
 70
     6
  9
$SURFTAB2
 70
     6
  9
$SURFTYPE
 70
     6
  9
$SURFU
 70
     6
  9
$SURFV
 70
     6
  9
$UCSNAME
  2

  9
$UCSORG
 10
0.0
 20
0.0
 30
0.0
  9
$UCSXDIR
 10
1.0
 20
0.0
 30
0.0
  9
$UCSYDIR
 10
0.0
 20
1.0
 30
0.0
  9
$PUCSNAME
  2

  9
$PUCSORG
 10
0.0
 20
0.0
 30
0.0
  9
$PUCSXDIR
 10
1.0
 20
0.0
 30
0.0
  9
$PUCSYDIR
 10
0.0
 20
1.0
 30
0.0
  9
$USERI1
 70
     0
  9
$USERI2
 70
     0
  9
$USERI3
 70
     0
  9
$USERI4
 70
     0
  9
$USERI5
 70
     0
  9
$USERR1
 40
0.0
  9
$USERR2
 40
0.0
  9
$USERR3
 40
0.0
  9
$USERR4
 40
0.0
  9
$USERR5
 40
0.0
  9
$WORLDVIEW
 70
     1
  9
$SHADEDGE
 70
     3
  9
$SHADEDIF
 70
    70
  9
$TILEMODE
 70
     1
  9
$MAXACTVP
 70
    64
  9
$PINSBASE
 10
0.0
 20
0.0
 30
0.0
  9
$PLIMCHECK
 70
     0
  9
$PEXTMIN
 10
1.000000000000000E+20
 20
1.000000000000000E+20
 30
1.000000000000000E+20
  9
$PEXTMAX
 10
-1.000000000000000E+20
 20
-1.000000000000000E+20
 30
-1.000000000000000E+20
  9
$PLIMMIN
 10
0.0
 20
0.0
  9
$PLIMMAX
 10
12.0
 20
9.0
  9
$UNITMODE
 70
     0
  9
$VISRETAIN
 70
     1
  9
$PLINEGEN
 70
     0
  9
$PSLTSCALE
 70
     1
  9
$TREEDEPTH
 70
  3020
  9
$PICKSTYLE
 70
     1
  9
$CMLSTYLE
  2
STANDARD
  9
$CMLJUST
 70
     0
  9
$CMLSCALE
 40
1.0
  9
$PROXYGRAPHICS
 70
     1
  9
$MEASUREMENT
 70
     0
  0
ENDSEC
  0
SECTION
  2
CLASSES
  0
CLASS
  1
ACDBDICTIONARYWDFLT
  2
AcDbDictionaryWithDefault
  3
AutoCAD 2000
 90
        0
280
     0
281
     0
  0
CLASS
  1
ACDBPLACEHOLDER
  2
AcDbPlaceHolder
  3
AutoCAD 2000
 90
        0
280
     0
281
     0
  0
CLASS
  1
LAYOUT
  2
AcDbLayout
  3
AutoCAD 2000
 90
        0
280
     0
281
     0
  0
CLASS
  1
LONG_TRANSACTION
  2
AcDbLongTransaction
  3
AutoCAD 2000
 90
        0
280
     0
281
     0
  0
CLASS
  1
LWPOLYLINE
  2
AcDbPolyline
  3
AutoCAD 2000
 90
        0
280
     0
281
     1
  0
CLASS
  1
HATCH
  2
AcDbHatch
  3
AutoCAD 2000
 90
        0
280
     0
281
     1
  0
CLASS
  1
XRECORD
  2
AcDbXrecord
  3
AutoCAD 2000
 90
        0
280
     0
281
     0
  0
ENDSEC
  0
SECTION
  2
TABLES
  0
TABLE
  2
VPORT
  5
8
330
0
100
AcDbSymbolTable
 70
     3
  0
VPORT
  5
22C
330
8
100
AcDbSymbolTableRecord
100
AcDbViewportTableRecord
  2
*ACTIVE
 70
     0
 10
0.0
 20
0.0
 11
1.0
 21
1.0
 12
6.58133144125172
 22
5.283088231257247
 13
0.0
 23
0.0
 14
0.5
 24
0.5
 15
0.5
 25
0.5
 16
0.0
 26
0.0
 36
1.0
 17
0.0
 27
0.0
 37
0.0
 40
9.000383529783603
 41
1.462515883100381
 42
50.0
 43
0.0
 44
0.0
 50
0.0
 51
0.0
 71
     0
 72
   100
 73
     1
 74
     3
 75
     0
 76
     0
 77
     0
 78
     0
  0
ENDTAB
  0
TABLE
  2
LTYPE
  5
5
330
0
100
AcDbSymbolTable
 70
     1
  0
LTYPE
  5
14
330
5
100
AcDbSymbolTableRecord
100
AcDbLinetypeTableRecord
  2
BYBLOCK
 70
     0
  3

 72
    65
 73
     0
 40
0.0
  0
LTYPE
  5
15
330
5
100
AcDbSymbolTableRecord
100
AcDbLinetypeTableRecord
  2
BYLAYER
 70
     0
  3

 72
    65
 73
     0
 40
0.0
  0
LTYPE
  5
16
330
5
100
AcDbSymbolTableRecord
100
AcDbLinetypeTableRecord
  2
CONTINUOUS
 70
     0
  3
Solid line
 72
    65
 73
     0
 40
0.0
  0
ENDTAB
  0
TABLE
  2
LAYER
  5
2
330
0
100
AcDbSymbolTable
 70
     4
  0
LAYER
  5
10
330
2
100
AcDbSymbolTableRecord
100
AcDbLayerTableRecord
  2
0
 70
     0
 62
     7
  6
CONTINUOUS
  0
LAYER
  5
34
330
2
100
AcDbSymbolTableRecord
100
AcDbLayerTableRecord
  2
L
 70
     0
 62
     7
  6
CONTINUOUS
  0
LAYER
  5
45
330
2
100
AcDbSymbolTableRecord
100
AcDbLayerTableRecord
  2
DEFPOINTS
 70
     0
 62
     7
  6
CONTINUOUS
  0
LAYER
  5
88
330
2
100
AcDbSymbolTableRecord
100
AcDbLayerTableRecord
  2
TX
 70
     0
 62
   150
  6
CONTINUOUS
  0
ENDTAB
  0
TABLE
  2
STYLE
  5
3
330
0
100
AcDbSymbolTable
 70
     3
  0
STYLE
  5
11
330
3
100
AcDbSymbolTableRecord
100
AcDbTextStyleTableRecord
  2
STANDARD
 70
     0
 40
0.0
 41
1.0
 50
0.0
 71
     0
 42
0.2
  3
txt
  4

  0
STYLE
  5
35
330
3
100
AcDbSymbolTableRecord
100
AcDbTextStyleTableRecord
  2
REG
 70
     0
 40
0.0
 41
1.0
 50
0.0
 71
     0
 42
0.09375
  3
E:\R13\com\fonts\ARCHITXT.SHX
  4

  0
STYLE
  5
36
330
3
100
AcDbSymbolTableRecord
100
AcDbTextStyleTableRecord
  2
DIMTXT
 70
     0
 40
0.0
 41
1.0
 50
0.0
 71
     0
 42
1.125
  3
archt.shx
  4

  0
ENDTAB
  0
TABLE
  2
VIEW
  5
6
330
0
100
AcDbSymbolTable
 70
     0
  0
ENDTAB
  0
TABLE
  2
UCS
  5
7
330
0
100
AcDbSymbolTable
 70
     0
  0
ENDTAB
  0
TABLE
  2
APPID
  5
9
330
0
100
AcDbSymbolTable
 70
     1
  0
APPID
  5
12
330
9
100
AcDbSymbolTableRecord
100
AcDbRegAppTableRecord
  2
ACAD
 70
     0
  0
ENDTAB
  0
TABLE
  2
DIMSTYLE
  5
A
330
0
100
AcDbSymbolTable
 70
     6
  0
DIMSTYLE
105
27
102
{ACAD_REACTORS
330
C1
330
CF
102
}
330
A
100
AcDbSymbolTableRecord
100
AcDbDimStyleTableRecord
  2
STANDARD
 70
     0
  3

  4

  5

  6

  7

 40
1.0
 41
0.18
 42
0.0625
 43
0.38
 44
0.18
 45
0.0
 46
0.0
 47
0.0
 48
0.0
140
0.18
141
0.09
142
0.0
143
25.4
144
1.0
145
0.0
146
1.0
147
0.09
 71
     0
 72
     0
 73
     1
 74
     1
 75
     0
 76
     0
 77
     0
 78
     0
170
     0
171
     2
172
     0
173
     0
174
     0
175
     0
176
     0
177
     0
178
     0
270
     2
271
     2
272
     2
273
     2
274
     2
340
11
275
     0
280
     0
281
     0
282
     0
283
     1
284
     0
285
     0
286
     0
287
     3
288
     0
  0
DIMSTYLE
105
37
330
A
100
AcDbSymbolTableRecord
100
AcDbDimStyleTableRecord
  2
1
 70
     0
  3

  4

  5

  6

  7

 40
1.0
 41
1.125
 42
0.5
 43
0.375
 44
1.19921875
 45
0.0
 46
0.5
 47
0.0
 48
0.0
140
1.125
141
0.125
142
0.0
143
25.4
144
1.0
145
0.0
146
0.8
147
0.5625
 71
     0
 72
     0
 73
     0
 74
     0
 75
     0
 76
     0
 77
     1
 78
     3
170
     0
171
     2
172
     1
173
     0
174
     1
175
     0
176
   133
177
   133
178
   150
270
     2
271
     3
272
     3
273
     2
274
     2
340
36
275
     0
280
     0
281
     0
282
     0
283
     1
284
     0
285
     0
286
     0
287
     4
288
     0
  0
DIMSTYLE
105
38
330
A
100
AcDbSymbolTableRecord
100
AcDbDimStyleTableRecord
  2
1$2
 70
     0
  3

  4

  5
DOTSMALL
  6

  7

 40
1.0
 41
1.5
 42
0.5
 43
0.375
 44
1.19921875
 45
0.0
 46
0.5
 47
0.0
 48
0.0
140
0.75
141
0.125
142
0.0
143
25.4
144
1.0
145
0.0
146
0.8
147
0.5625
 71
     0
 72
     0
 73
     0
 74
     0
 75
     0
 76
     0
 77
     1
 78
     3
170
     0
171
     2
172
     1
173
     0
174
     1
175
     0
176
   133
177
   133
178
   150
270
     2
271
     3
272
     3
273
     2
274
     2
340
36
275
     0
280
     0
281
     0
282
     0
283
     1
284
     0
285
     0
286
     0
287
     4
288
     0
  0
DIMSTYLE
105
39
330
A
100
AcDbSymbolTableRecord
100
AcDbDimStyleTableRecord
  2
1$4
 70
     0
  3

  4

  5

  6

  7
DOTSMALL
 40
1.0
 41
1.5
 42
0.5
 43
0.375
 44
1.19921875
 45
0.0
 46
0.5
 47
0.0
 48
0.0
140
0.75
141
0.125
142
0.0
143
25.4
144
1.0
145
0.0
146
0.8
147
0.5625
 71
     0
 72
     0
 73
     0
 74
     0
 75
     0
 76
     0
 77
     1
 78
     3
170
     0
171
     2
172
     1
173
     1
174
     1
175
     0
176
   133
177
   133
178
   150
270
     2
271
     3
272
     3
273
     2
274
     2
340
36
275
     0
280
     0
281
     0
282
     0
283
     1
284
     0
285
     0
286
     0
287
     4
288
     0
  0
DIMSTYLE
105
3A
330
A
100
AcDbSymbolTableRecord
100
AcDbDimStyleTableRecord
  2
1$3
 70
     0
  3

  4

  5
DOTSMALL
  6

  7

 40
1.0
 41
1.5
 42
0.5
 43
0.375
 44
1.19921875
 45
0.0
 46
0.5
 47
0.0
 48
0.0
140
0.75
141
0.125
142
0.0
143
25.4
144
1.0
145
0.0
146
0.8
147
0.5625
 71
     0
 72
     0
 73
     0
 74
     0
 75
     0
 76
     0
 77
     1
 78
     3
170
     0
171
     2
172
     1
173
     0
174
     1
175
     0
176
   133
177
   133
178
   150
270
     2
271
     3
272
     3
273
     2
274
     2
340
36
275
     0
280
     0
281
     0
282
     0
283
     1
284
     0
285
     0
286
     0
287
     4
288
     0
  0
DIMSTYLE
105
3B
330
A
100
AcDbSymbolTableRecord
100
AcDbDimStyleTableRecord
  2
1$7
 70
     0
  3

  4

  5

  6

  7

 40
1.0
 41
1.0
 42
0.5
 43
0.375
 44
1.19921875
 45
0.0
 46
0.5
 47
0.0
 48
0.0
140
0.75
141
0.125
142
0.0
143
25.4
144
1.0
145
0.0
146
0.8
147
0.5625
 71
     0
 72
     0
 73
     0
 74
     0
 75
     0
 76
     0
 77
     1
 78
     3
170
     0
171
     2
172
     1
173
     0
174
     1
175
     0
176
   133
177
   133
178
   150
270
     2
271
     3
272
     3
273
     2
274
     2
340
36
275
     0
280
     0
281
     0
282
     0
283
     1
284
     0
285
     0
286
     0
287
     4
288
     0
  0
ENDTAB
  0
TABLE
  2
BLOCK_RECORD
  5
1
330
0
100
AcDbSymbolTable
 70
     5
  0
BLOCK_RECORD
  5
1F
102
{ACAD_XDICTIONARY
360
24F
102
}
330
1
100
AcDbSymbolTableRecord
100
AcDbBlockTableRecord
  2
*MODEL_SPACE
  0
BLOCK_RECORD
  5
1B
102
{ACAD_XDICTIONARY
360
24D
102
}
330
1
100
AcDbSymbolTableRecord
100
AcDbBlockTableRecord
  2
*PAPER_SPACE
  0
BLOCK_RECORD
  5
2B
330
1
100
AcDbSymbolTableRecord
100
AcDbBlockTableRecord
  2
_DOT
  0
BLOCK_RECORD
  5
30
330
1
100
AcDbSymbolTableRecord
100
AcDbBlockTableRecord
  2
_DOTSMALL
  0
BLOCK_RECORD
  5
C2
330
1
100
AcDbSymbolTableRecord
100
AcDbBlockTableRecord
  2
*D3
  0
BLOCK_RECORD
  5
D0
330
1
100
AcDbSymbolTableRecord
100
AcDbBlockTableRecord
  2
*D4
  0
ENDTAB
  0
ENDSEC
  0
SECTION
  2
BLOCKS
  0
BLOCK
  5
20
330
1F
100
AcDbEntity
  8
0
100
AcDbBlockBegin
  2
*MODEL_SPACE
 70
     0
 10
0.0
 20
0.0
 30
0.0
  3
*MODEL_SPACE
  1

  0
ENDBLK
  5
21
330
1F
100
AcDbEntity
  8
0
100
AcDbBlockEnd
  0
BLOCK
  5
1C
330
1B
100
AcDbEntity
 67
     1
  8
0
100
AcDbBlockBegin
  2
*PAPER_SPACE
 70
     0
 10
0.0
 20
0.0
 30
0.0
  3
*PAPER_SPACE
  1

  0
ENDBLK
  5
1D
330
1B
100
AcDbEntity
 67
     1
  8
0
100
AcDbBlockEnd
  0
BLOCK
  5
2E
330
2B
100
AcDbEntity
  8
0
100
AcDbBlockBegin
  2
_DOT
 70
     0
 10
0.0
 20
0.0
 30
0.0
  3
_DOT
  1

  0
LWPOLYLINE
  5
2C
330
2B
100
AcDbEntity
  8
L
 62
     0
100
AcDbPolyline
 90
        2
 70
     1
 43
0.5
 10
-0.25
 20
0.0
 42
1.0
 10
0.25
 20
0.0
 42
1.0
  0
LINE
  5
2D
330
2B
100
AcDbEntity
  8
L
 62
     0
100
AcDbLine
 10
-0.5
 20
0.0
 30
0.0
 11
-1.0
 21
0.0
 31
0.0
  0
ENDBLK
  5
2F
330
2B
100
AcDbEntity
  8
0
100
AcDbBlockEnd
  0
BLOCK
  5
32
330
30
100
AcDbEntity
  8
0
 48
0.116666
100
AcDbBlockBegin
  2
_DOTSMALL
 70
     0
 10
0.0
 20
0.0
 30
0.0
  3
_DOTSMALL
  1

  0
LWPOLYLINE
  5
31
330
30
100
AcDbEntity
  8
0
  6
BYBLOCK
 62
     0
100
AcDbPolyline
 90
        2
 70
     1
 43
0.5
 10
-0.0625
 20
0.0
 42
1.0
 10
0.0625
 20
0.0
 42
1.0
  0
ENDBLK
  5
33
330
30
100
AcDbEntity
  8
0
 48
0.116666
100
AcDbBlockEnd
  0
BLOCK
  5
CD
330
C2
100
AcDbEntity
  8
0
100
AcDbBlockBegin
  2
*D3
 70
     1
 10
0.0
 20
0.0
 30
0.0
  3
*D3
  1

  0
LINE
  5
C3
330
C2
100
AcDbEntity
  8
0
 62
     0
100
AcDbLine
 10
6.117318744001774
 20
7.359500811882028
 30
0.0
 11
3.472961352510669
 21
7.359500811882029
 31
0.0
  0
LINE
  5
C4
330
C2
100
AcDbEntity
  8
0
 62
     0
100
AcDbLine
 10
4.4768187440018
 20
4.984500811882028
 30
0.0
 11
3.472961352510668
 21
4.984500811882028
 31
0.0
  0
LINE
  5
C5
330
C2
100
AcDbEntity
  8
0
 62
     0
100
AcDbLine
 10
3.652961352510669
 20
7.17950081188203
 30
0.0
 11
3.652961352510669
 21
6.352000811882029
 31
0.0
  0
LINE
  5
C6
330
C2
100
AcDbEntity
  8
0
 62
     0
100
AcDbLine
 10
3.652961352510669
 20
5.164500811882028
 30
0.0
 11
3.652961352510669
 21
5.99200081188203
 31
0.0
  0
SOLID
  5
C7
330
C2
100
AcDbEntity
  8
0
 62
     0
100
AcDbTrace
 10
3.622961352510669
 20
7.17950081188203
 30
0.0
 11
3.682961352510669
 21
7.17950081188203
 31
0.0
 12
3.652961352510669
 22
7.359500811882029
 32
0.0
 13
3.652961352510669
 23
7.359500811882029
 33
0.0
  0
SOLID
  5
C8
330
C2
100
AcDbEntity
  8
0
 62
     0
100
AcDbTrace
 10
3.622961352510669
 20
5.164500811882028
 30
0.0
 11
3.682961352510668
 21
5.164500811882028
 31
0.0
 12
3.652961352510668
 22
4.984500811882028
 32
0.0
 13
3.652961352510668
 23
4.984500811882028
 33
0.0
  0
MTEXT
  5
C9
330
C2
100
AcDbEntity
  8
0
 62
     0
100
AcDbMText
 10
3.652961352510668
 20
6.17200081188203
 30
0.0
 40
0.18
 41
0.0
 71
     5
 72
     1
  1
\A1;2.38
1001
ACAD
1000
MTEXTBEGIN
1070
    73
1070
     1
1070
    44
1040
1.0
1070
    74
1070
     0
1000
MTEXTEND
  0
POINT
  5
CA
330
C2
100
AcDbEntity
  8
DEFPOINTS
 62
     0
100
AcDbPoint
 10
6.179818744001774
 20
7.359500811882028
 30
0.0
  0
POINT
  5
CB
330
C2
100
AcDbEntity
  8
DEFPOINTS
 62
     0
100
AcDbPoint
 10
4.5393187440018
 20
4.984500811882028
 30
0.0
  0
POINT
  5
CC
330
C2
100
AcDbEntity
  8
DEFPOINTS
 62
     0
100
AcDbPoint
 10
3.652961352510668
 20
4.984500811882028
 30
0.0
  0
ENDBLK
  5
CE
330
C2
100
AcDbEntity
  8
0
100
AcDbBlockEnd
  0
BLOCK
  5
DB
330
D0
100
AcDbEntity
  8
0
100
AcDbBlockBegin
  2
*D4
 70
     1
 10
0.0
 20
0.0
 30
0.0
  3
*D4
  1

  0
LINE
  5
D1
330
D0
100
AcDbEntity
  8
0
 62
     0
100
AcDbLine
 10
4.5393187440018
 20
5.047000811882028
 30
0.0
 11
4.5393187440018
 21
8.040921461900719
 31
0.0
  0
LINE
  5
D2
330
D0
100
AcDbEntity
  8
0
 62
     0
100
AcDbLine
 10
7.820318744001749
 20
5.047000811882028
 30
0.0
 11
7.820318744001749
 21
8.040921461900719
 31
0.0
  0
LINE
  5
D3
330
D0
100
AcDbEntity
  8
0
 62
     0
100
AcDbLine
 10
4.7193187440018
 20
7.860921461900719
 30
0.0
 11
5.819818744001774
 21
7.860921461900719
 31
0.0
  0
LINE
  5
D4
330
D0
100
AcDbEntity
  8
0
 62
     0
100
AcDbLine
 10
7.640318744001749
 20
7.860921461900719
 30
0.0
 11
6.539818744001775
 21
7.860921461900719
 31
0.0
  0
SOLID
  5
D5
330
D0
100
AcDbEntity
  8
0
 62
     0
100
AcDbTrace
 10
4.7193187440018
 20
7.890921461900719
 30
0.0
 11
4.7193187440018
 21
7.830921461900719
 31
0.0
 12
4.5393187440018
 22
7.860921461900719
 32
0.0
 13
4.5393187440018
 23
7.860921461900719
 33
0.0
  0
SOLID
  5
D6
330
D0
100
AcDbEntity
  8
0
 62
     0
100
AcDbTrace
 10
7.640318744001749
 20
7.890921461900719
 30
0.0
 11
7.640318744001749
 21
7.830921461900719
 31
0.0
 12
7.820318744001749
 22
7.860921461900719
 32
0.0
 13
7.820318744001749
 23
7.860921461900719
 33
0.0
  0
MTEXT
  5
D7
330
D0
100
AcDbEntity
  8
0
 62
     0
100
AcDbMText
 10
6.179818744001774
 20
7.860921461900719
 30
0.0
 40
0.18
 41
0.0
 71
     5
 72
     1
  1
\A1;3.28
1001
ACAD
1000
MTEXTBEGIN
1070
    73
1070
     1
1070
    44
1040
1.0
1070
    74
1070
     0
1000
MTEXTEND
  0
POINT
  5
D8
330
D0
100
AcDbEntity
  8
DEFPOINTS
 62
     0
100
AcDbPoint
 10
4.5393187440018
 20
4.984500811882028
 30
0.0
  0
POINT
  5
D9
330
D0
100
AcDbEntity
  8
DEFPOINTS
 62
     0
100
AcDbPoint
 10
7.820318744001749
 20
4.984500811882028
 30
0.0
  0
POINT
  5
DA
330
D0
100
AcDbEntity
  8
DEFPOINTS
 62
     0
100
AcDbPoint
 10
7.820318744001749
 20
7.860921461900719
 30
0.0
  0
ENDBLK
  5
DC
330
D0
100
AcDbEntity
  8
0
100
AcDbBlockEnd
  0
ENDSEC
  0
SECTION
  2
ENTITIES
  0
LWPOLYLINE
  5
BD
330
1F
100
AcDbEntity
  8
L
 62
     5
 48
0.116666
100
AcDbPolyline
 90
        2
 70
     0
 43
0.0282
 10
3.697040843722131
 20
3.832876517234083
 10
8.872698307396856
 20
3.832876517234083
  0
TEXT
  5
BE
330
1F
100
AcDbEntity
  8
L
 62
     3
 48
0.116666
100
AcDbText
 10
3.791026648650383
 20
3.926862322162222
 30
0.0
 40
0.141
  1
SERIES 3 - 3 1/4" TRIANGULAR POST #1240
  7
REG
100
AcDbText
  0
TEXT
  5
BF
330
1F
100
AcDbEntity
  8
TX
 48
0.116666
100
AcDbText
 10
3.791026648650383
 20
3.644890712305945
 30
0.0
 40
0.094
  1
SCALE : FULL SIZE
  7
REG
 11
3.791026648650383
 21
3.738890712305945
 31
0.0
100
AcDbText
 73
     3
  0
DIMENSION
  5
C1
330
1F
100
AcDbEntity
  8
0
100
AcDbDimension
  2
*D3
 10
3.652961352510668
 20
4.984500811882028
 30
0.0
 11
3.652961352510668
 21
6.17200081188203
 31
0.0
 70
    32
  3
STANDARD
100
AcDbAlignedDimension
 13
6.179818744001774
 23
7.359500811882028
 33
0.0
 14
4.5393187440018
 24
4.984500811882028
 34
0.0
 50
90.0
100
AcDbRotatedDimension
  0
DIMENSION
  5
CF
330
1F
100
AcDbEntity
  8
0
100
AcDbDimension
  2
*D4
 10
7.820318744001749
 20
7.860921461900719
 30
0.0
 11
6.179818744001774
 21
7.860921461900719
 31
0.0
 70
    32
  3
STANDARD
100
AcDbAlignedDimension
 13
4.5393187440018
 23
4.984500811882028
 33
0.0
 14
7.820318744001749
 24
4.984500811882028
 34
0.0
100
AcDbRotatedDimension
  0
LWPOLYLINE
  5
159
330
1F
100
AcDbEntity
  8
L
 62
     5
100
AcDbPolyline
 90
       16
 70
     1
 43
0.0
 10
6.79275653794664
 20
6.300737639792444
 10
6.230832134250872
 20
7.120252092325258
 42
0.52463033905491
 10
6.128805354260318
 20
7.120252092325316
 10
5.566880950056869
 20
6.300737639792471
 42
0.6046335772452938
 10
5.617894340052114
 20
6.203500811881966
 10
5.947360917444054
 20
6.203500811881967
 42
0.4343974461938473
 10
6.00921586598469
 20
6.269739366000701
 42
-0.1836439204190465
 10
6.044730876439883
 20
6.386690753908363
 42
-1.000000052262781
 10
6.119101590528092
 20
6.329201651584386
 42
0.1496569003053753
 10
6.102972388592438
 20
6.286474560693664
 42
0.4129276010260455
 10
6.179818744001775
 20
6.197504278506625
 42
0.6043081756466679
 10
6.242525339796921
 20
6.329201651584379
 42
-1.000000052262781
 10
6.316896053885163
 20
6.386690753908382
 42
-0.1836439204190467
 10
6.35241106434018
 20
6.269739366000711
 42
0.434397446193847
 10
6.414266012880968
 20
6.203500811881966
 10
6.741743147951208
 20
6.203500811882027
 42
0.604633577244067
  0
LWPOLYLINE
  5
17B
330
1F
100
AcDbEntity
  8
L
 62
     5
100
AcDbPolyline
 90
       49
 70
     1
 43
0.0
 10
5.495818744001805
 20
5.84286914999275
 10
5.495818744001768
 20
5.84286914999275
 42
-0.3824235950311298
 10
5.482461601144477
 20
5.827959387405542
 10
5.482461601144478
 20
5.827959387405507
 42
0.3497563069981264
 10
5.386318744001851
 20
5.738500811882037
 10
5.38631874400178
 20
5.738500811882047
 10
5.38631874400178
 20
5.705118127612152
 10
5.386318744001891
 20
5.705118127612152
 42
-0.3178372451962509
 10
5.344985410668452
 20
5.646663967034021
 10
5.344985410668416
 20
5.646663967034124
 42
0.0797250044965496
 10
5.297125925584627
 20
5.620583400604671
 10
5.297125925584659
 20
5.620583400604629
 42
1.000000052261825
 10
5.35461502790853
 20
5.546212686516411
 10
5.354615027908509
 20
5.546212686516439
 42
-0.4869343660267312
 10
5.473656942339073
 20
5.516042236358545
 10
5.473656942338973
 20
5.516042236358501
 10
5.482461601144475
 20
5.516042236358501
 10
5.482461601144477
 20
5.516042236358516
 42
-0.3824235950311297
 10
5.495818744001769
 20
5.501132473771306
 10
5.495818744001805
 20
5.501132473771306
 10
5.495818744001805
 20
5.46786914999275
 10
5.495818744001768
 20
5.46786914999275
 42
-0.3824235950311298
 10
5.482461601144477
 20
5.452959387405541
 10
5.482461601144475
 20
5.452959387405556
 10
5.473656942338973
 20
5.452959387405556
 10
5.473656942339163
 20
5.452959387405472
 42
-0.4869343660257674
 10
5.354615027908531
 20
5.422788937247533
 10
5.354615027908502
 20
5.422788937247497
 42
1.000000052261085
 10
5.297125925584632
 20
5.348418223159392
 10
5.297125925584604
 20
5.348418223159357
 42
0.0797250044965545
 10
5.344985410668417
 20
5.322337656729826
 10
5.344985410668452
 20
5.322337656729922
 42
-0.3178372451962508
 10
5.386318744001891
 20
5.263883496151791
 10
5.38631874400178
 20
5.263883496151791
 10
5.38631874400178
 20
5.146500811882063
 10
5.386318744001723
 20
5.146500811882063
 42
-0.4142135623725581
 10
5.324318744001654
 20
5.084500811882108
 10
5.324318744001654
 20
5.084500811882051
 10
4.87849177529986
 20
5.084500811882051
 10
4.87849177529986
 20
5.084500811882055
 42
-0.6046335772460307
 10
4.827478385304333
 20
5.181737639792481
 10
4.827478385304427
 20
5.181737639792416
 10
5.298934893453431
 20
5.864279064268956
 10
5.298934893453417
 20
5.864279064268965
 42
-0.2463904709223907
 10
5.349948283448636
 20
5.891042236358513
 10
5.349948283448636
 20
5.891042236358501
 10
5.482461601144475
 20
5.891042236358501
 10
5.482461601144477
 20
5.891042236358516
 42
-0.3824235950311297
 10
5.495818744001805
 20
5.876132473771306
  0
LWPOLYLINE
  5
193
330
1F
100
AcDbEntity
  8
L
 62
     5
100
AcDbPolyline
 90
       49
 70
     1
 43
0.0
 10
7.01465207733513
 20
5.646663967034227
 42
-0.0797250044965546
 10
7.062511562418942
 20
5.620583400604696
 10
7.062511562418889
 20
5.620583400604629
 42
-1.000000052261825
 10
7.005022460095019
 20
5.546212686516411
 10
7.00502246009504
 20
5.546212686516439
 42
0.486934366026731
 10
6.885980545664475
 20
5.516042236358545
 10
6.885980545664576
 20
5.516042236358501
 10
6.877175886858847
 20
5.516042236358501
 10
6.877175886858847
 20
5.516042236358491
 42
0.382423595028746
 10
6.863818744001894
 20
5.501132473771306
 10
6.863818744001743
 20
5.501132473771306
 10
6.863818744001743
 20
5.46786914999275
 10
6.863818744001894
 20
5.46786914999275
 42
0.382423595028746
 10
6.877175886858847
 20
5.452959387405567
 10
6.877175886858847
 20
5.452959387405556
 10
6.885980545664576
 20
5.452959387405556
 10
6.885980545664519
 20
5.452959387405531
 42
0.4869343660264555
 10
7.005022460094956
 20
5.422788937247614
 10
7.005022460095046
 20
5.422788937247497
 42
-1.000000052261084
 10
7.062511562418917
 20
5.348418223159392
 10
7.062511562418944
 20
5.348418223159357
 42
-0.0797250044965545
 10
7.014652077335131
 20
5.322337656729826
 10
7.014652077335097
 20
5.322337656729922
 42
0.3178372451962509
 10
6.973318744001658
 20
5.263883496151791
 10
6.973318744001769
 20
5.263883496151791
 10
6.973318744001769
 20
5.146500811882063
 10
6.973318744001712
 20
5.146500811882063
 42
0.4142135623730951
 10
7.035318744001667
 20
5.084500811882108
 10
7.035318744001667
 20
5.084500811882051
 10
7.481145712703689
 20
5.084500811882051
 10
7.481145712703689
 20
5.084500811882001
 42
0.6046335772452935
 10
7.532159102698886
 20
5.181737639792411
 10
7.532159102698894
 20
5.181737639792416
 10
7.060702594550118
 20
5.864279064268956
 10
7.060702594550205
 20
5.864279064269015
 42
0.2463904709225629
 10
7.009689204554685
 20
5.891042236358503
 10
7.009689204554685
 20
5.891042236358501
 10
6.877175886858847
 20
5.891042236358501
 10
6.877175886858847
 20
5.89104223635849
 42
0.382423595028746
 10
6.863818744001894
 20
5.876132473771306
 10
6.863818744001743
 20
5.876132473771306
 10
6.863818744001743
 20
5.84286914999275
 10
6.863818744001894
 20
5.84286914999275
 42
0.382423595028746
 10
6.877175886858847
 20
5.827959387405567
 10
6.877175886858844
 20
5.827959387405527
 42
-0.3497563069979397
 10
6.97331874400159
 20
5.738500811882021
 10
6.973318744001769
 20
5.738500811882047
 10
6.973318744001769
 20
5.705118127612152
 10
6.973318744001739
 20
5.705118127612152
 42
0.3178372451960825
  0
LWPOLYLINE
  5
1C9
330
1F
100
AcDbEntity
  8
L
 62
     5
100
AcDbPolyline
 90
       94
 70
     1
 43
0.0
 10
6.800818744001642
 20
5.984500811882085
 42
0.414213562375315
 10
6.785818744001712
 20
5.969500811882042
 10
6.785818744001769
 20
5.969500811882042
 10
6.785818744001769
 20
5.749500811882015
 10
6.785818744001712
 20
5.749500811882015
 42
0.414213562375315
 10
6.800818744001642
 20
5.734500811881972
 10
6.800818744001642
 20
5.734500811882028
 10
6.864318744001618
 20
5.734500811882028
 10
6.864318744001618
 20
5.734500811882085
 42
-0.4142135623775347
 10
6.879318744001889
 20
5.719500811882042
 10
6.879318744001718
 20
5.719500811882042
 10
6.879318744001718
 20
5.624500811882015
 10
6.879318744001889
 20
5.624500811882015
 42
-0.4142135623775346
 10
6.864318744001618
 20
5.609500811881972
 10
6.864318744001618
 20
5.609500811882028
 10
6.800818744001642
 20
5.609500811882028
 10
6.800818744001642
 20
5.609500811882085
 42
0.414213562375315
 10
6.785818744001712
 20
5.594500811882042
 10
6.785818744001769
 20
5.594500811882042
 10
6.785818744001769
 20
5.374500811882015
 10
6.785818744001712
 20
5.374500811882015
 42
0.414213562375315
 10
6.800818744001642
 20
5.359500811881972
 10
6.800818744001642
 20
5.359500811882028
 10
6.864318744001618
 20
5.359500811882028
 10
6.864318744001618
 20
5.359500811882085
 42
-0.4142135623775347
 10
6.879318744001889
 20
5.344500811882042
 10
6.879318744001718
 20
5.344500811882042
 10
6.879318744001718
 20
5.249500811882015
 10
6.879318744001889
 20
5.249500811882015
 42
-0.4142135623775346
 10
6.864318744001618
 20
5.234500811881972
 10
6.864318744001618
 20
5.234500811882028
 10
6.800818744001642
 20
5.234500811882028
 10
6.800818744001642
 20
5.234500811882085
 42
0.414213562375315
 10
6.785818744001712
 20
5.219500811882042
 10
6.785818744001769
 20
5.219500811882042
 10
6.785818744001769
 20
4.999500811882015
 10
6.785818744001712
 20
4.999500811882015
 42
0.414213562375315
 10
6.800818744001642
 20
4.984500811881972
 10
6.800818744001642
 20
4.984500811882028
 10
7.820318744001749
 20
4.984500811882028
 10
6.179818744001774
 20
7.359500811882028
 10
4.5393187440018
 20
4.984500811882028
 10
5.55881874400168
 20
4.984500811882028
 10
5.55881874400168
 20
4.984500811881972
 42
0.4142135623775349
 10
5.57381874400195
 20
4.999500811882015
 10
5.57381874400178
 20
4.999500811882015
 10
5.57381874400178
 20
5.219500811882042
 10
5.57381874400195
 20
5.219500811882042
 42
0.4142135623775347
 10
5.55881874400168
 20
5.234500811882085
 10
5.55881874400168
 20
5.234500811882028
 10
5.495318744001703
 20
5.234500811882028
 10
5.495318744001703
 20
5.234500811881972
 42
-0.4142135623753149
 10
5.480318744001774
 20
5.249500811882015
 10
5.480318744001831
 20
5.249500811882015
 10
5.480318744001831
 20
5.344500811882042
 10
5.480318744001774
 20
5.344500811882042
 42
-0.414213562375315
 10
5.495318744001703
 20
5.359500811882085
 10
5.495318744001703
 20
5.359500811882028
 10
5.55881874400168
 20
5.359500811882028
 10
5.55881874400168
 20
5.359500811881972
 42
0.4142135623775349
 10
5.57381874400195
 20
5.374500811882015
 10
5.57381874400178
 20
5.374500811882015
 10
5.57381874400178
 20
5.594500811882042
 10
5.57381874400195
 20
5.594500811882042
 42
0.4142135623775347
 10
5.55881874400168
 20
5.609500811882085
 10
5.55881874400168
 20
5.609500811882028
 10
5.495318744001703
 20
5.609500811882028
 10
5.495318744001703
 20
5.609500811881972
 42
-0.4142135623753149
 10
5.480318744001774
 20
5.624500811882015
 10
5.480318744001831
 20
5.624500811882015
 10
5.480318744001831
 20
5.719500811882042
 10
5.480318744001774
 20
5.719500811882042
 42
-0.414213562375315
 10
5.495318744001703
 20
5.734500811882085
 10
5.495318744001703
 20
5.734500811882028
 10
5.55881874400168
 20
5.734500811882028
 10
5.55881874400168
 20
5.734500811881972
 42
0.4142135623775349
 10
5.57381874400195
 20
5.749500811882015
 10
5.57381874400178
 20
5.749500811882015
 10
5.57381874400178
 20
5.969500811882042
 10
5.57381874400195
 20
5.969500811882042
 42
0.4142135623775347
 10
5.55881874400168
 20
5.984500811882085
 10
5.55881874400168
 20
5.984500811882028
 10
5.495318744001703
 20
5.984500811882028
 10
5.495318744001703
 20
5.984500811881972
 42
-0.4142135623753149
 10
5.480318744001774
 20
5.999500811882015
 10
5.480318744001831
 20
5.999500811882015
 10
5.480318744001831
 20
6.078250811882028
 42
-0.4142135623730951
 10
5.511568744001831
 20
6.109500811882028
 10
6.848068744001718
 20
6.109500811882028
 42
-0.4142135623730951
 10
6.879318744001718
 20
6.078250811882028
 10
6.879318744001889
 20
5.999500811882015
 42
-0.4142135623775346
 10
6.864318744001618
 20
5.984500811881972
 10
6.864318744001618
 20
5.984500811882028
 10
6.800818744001642
 20
5.984500811882028
  0
ENDSEC
  0
SECTION
  2
OBJECTS
  0
DICTIONARY
  5
C
330
0
100
AcDbDictionary
  3
ACAD_GROUP
350
D
  3
ACAD_LAYOUT
350
1A
  3
ACAD_MLINESTYLE
350
17
  3
ACAD_PLOTSETTINGS
350
19
  3
ACAD_PLOTSTYLENAME
350
E
  3
ACDBHEADERROUNDTRIPXREC
350
22D
  0
DICTIONARY
  5
24F
330
1F
100
AcDbDictionary
280
     1
  3
ACAD_LAYOUTSELFREF
360
250
  0
DICTIONARY
  5
24D
330
1B
100
AcDbDictionary
280
     1
  3
ACAD_LAYOUTSELFREF
360
24E
  0
DICTIONARY
  5
D
102
{ACAD_REACTORS
330
C
102
}
330
C
100
AcDbDictionary
  0
DICTIONARY
  5
1A
102
{ACAD_REACTORS
330
C
102
}
330
C
100
AcDbDictionary
  0
DICTIONARY
  5
17
102
{ACAD_REACTORS
330
C
102
}
330
C
100
AcDbDictionary
  3
STANDARD
350
18
  0
DICTIONARY
  5
19
102
{ACAD_REACTORS
330
C
102
}
330
C
100
AcDbDictionary
  0
ACDBDICTIONARYWDFLT
  5
E
102
{ACAD_REACTORS
330
C
102
}
330
C
100
AcDbDictionary
281
     1
  3
Normal
350
F
100
AcDbDictionaryWithDefault
340
F
  0
DICTIONARY
  5
22D
102
{ACAD_REACTORS
330
C
102
}
330
C
100
AcDbDictionary
  3
CEPSNTYPE
350
237
  3
FINGERPRINTGUID
350
238
  3
HYPERLINKBASE
350
230
  3
INSUNITS
350
236
  3
LAYOUTDICT
350
232
  3
LWETCUNION
350
235
  3
PLOTSETDICT
350
233
  3
PLOTSTYLNAMDICT
350
234
  3
PSVPSCALE
350
23A
  3
PUCSBASE
350
23D
  3
PUCSORGBACK
350
243
  3
PUCSORGBOTTOM
350
23F
  3
PUCSORGFRONT
350
242
  3
PUCSORGLEFT
350
240
  3
PUCSORGRIGHT
350
241
  3
PUCSORGTOP
350
23E
  3
PUCSORTHOREF
350
23B
  3
PUCSORTHOVIEW
350
23C
  3
STYLESHEET
350
231
  3
TSTACKALIGN
350
22E
  3
TSTACKSIZE
350
22F
  3
UCSBASE
350
246
  3
UCSORGBACK
350
24C
  3
UCSORGBOTTOM
350
248
  3
UCSORGFRONT
350
24B
  3
UCSORGLEFT
350
249
  3
UCSORGRIGHT
350
24A
  3
UCSORGTOP
350
247
  3
UCSORTHOREF
350
244
  3
UCSORTHOVIEW
350
245
  3
VERSIONGUID
350
239
  0
XRECORD
  5
250
102
{ACAD_REACTORS
330
24F
102
}
330
24F
100
AcDbXrecord
340
1F
  0
XRECORD
  5
24E
102
{ACAD_REACTORS
330
24D
102
}
330
24D
100
AcDbXrecord
340
1B
  0
MLINESTYLE
  5
18
102
{ACAD_REACTORS
330
17
102
}
330
17
100
AcDbMlineStyle
  2
STANDARD
 70
     0
  3

 62
   256
 51
90.0
 52
90.0
 71
     2
 49
0.5
 62
   256
  6
BYLAYER
 49
-0.5
 62
   256
  6
BYLAYER
  0
ACDBPLACEHOLDER
  5
F
102
{ACAD_REACTORS
330
E
102
}
330
E
100
AcDbPlaceHolder
280
     0
  0
XRECORD
  5
237
102
{ACAD_REACTORS
330
22D
102
}
330
22D
100
AcDbXrecord
 90
        0
  0
XRECORD
  5
238
102
{ACAD_REACTORS
330
22D
102
}
330
22D
100
AcDbXrecord
  1
{DC175E3D-AE85-11D5-9A93-0040C77E826B}
  0
XRECORD
  5
230
102
{ACAD_REACTORS
330
22D
102
}
330
22D
100
AcDbXrecord
  1

  0
XRECORD
  5
236
102
{ACAD_REACTORS
330
22D
102
}
330
22D
100
AcDbXrecord
 90
        1
  0
XRECORD
  5
232
102
{ACAD_REACTORS
330
22D
102
}
330
22D
100
AcDbXrecord
340
1A
  0
XRECORD
  5
235
102
{ACAD_REACTORS
330
22D
102
}
330
22D
100
AcDbXrecord
 90
    10781
  0
XRECORD
  5
233
102
{ACAD_REACTORS
330
22D
102
}
330
22D
100
AcDbXrecord
340
19
  0
XRECORD
  5
234
102
{ACAD_REACTORS
330
22D
102
}
330
22D
100
AcDbXrecord
340
E
  0
XRECORD
  5
23A
102
{ACAD_REACTORS
330
22D
102
}
330
22D
100
AcDbXrecord
 40
0.0
  0
XRECORD
  5
23D
102
{ACAD_REACTORS
330
22D
102
}
330
22D
100
AcDbXrecord
340
0
  0
XRECORD
  5
243
102
{ACAD_REACTORS
330
22D
102
}
330
22D
100
AcDbXrecord
 10
0.0
 20
0.0
 30
0.0
  0
XRECORD
  5
23F
102
{ACAD_REACTORS
330
22D
102
}
330
22D
100
AcDbXrecord
 10
0.0
 20
0.0
 30
0.0
  0
XRECORD
  5
242
102
{ACAD_REACTORS
330
22D
102
}
330
22D
100
AcDbXrecord
 10
0.0
 20
0.0
 30
0.0
  0
XRECORD
  5
240
102
{ACAD_REACTORS
330
22D
102
}
330
22D
100
AcDbXrecord
 10
0.0
 20
0.0
 30
0.0
  0
XRECORD
  5
241
102
{ACAD_REACTORS
330
22D
102
}
330
22D
100
AcDbXrecord
 10
0.0
 20
0.0
 30
0.0
  0
XRECORD
  5
23E
102
{ACAD_REACTORS
330
22D
102
}
330
22D
100
AcDbXrecord
 10
0.0
 20
0.0
 30
0.0
  0
XRECORD
  5
23B
102
{ACAD_REACTORS
330
22D
102
}
330
22D
100
AcDbXrecord
340
0
  0
XRECORD
  5
23C
102
{ACAD_REACTORS
330
22D
102
}
330
22D
100
AcDbXrecord
 70
     0
  0
XRECORD
  5
231
102
{ACAD_REACTORS
330
22D
102
}
330
22D
100
AcDbXrecord
  1

  0
XRECORD
  5
22E
102
{ACAD_REACTORS
330
22D
102
}
330
22D
100
AcDbXrecord
 90
        1
  0
XRECORD
  5
22F
102
{ACAD_REACTORS
330
22D
102
}
330
22D
100
AcDbXrecord
 90
       70
  0
XRECORD
  5
246
102
{ACAD_REACTORS
330
22D
102
}
330
22D
100
AcDbXrecord
340
0
  0
XRECORD
  5
24C
102
{ACAD_REACTORS
330
22D
102
}
330
22D
100
AcDbXrecord
 10
0.0
 20
0.0
 30
0.0
  0
XRECORD
  5
248
102
{ACAD_REACTORS
330
22D
102
}
330
22D
100
AcDbXrecord
 10
0.0
 20
0.0
 30
0.0
  0
XRECORD
  5
24B
102
{ACAD_REACTORS
330
22D
102
}
330
22D
100
AcDbXrecord
 10
0.0
 20
0.0
 30
0.0
  0
XRECORD
  5
249
102
{ACAD_REACTORS
330
22D
102
}
330
22D
100
AcDbXrecord
 10
0.0
 20
0.0
 30
0.0
  0
XRECORD
  5
24A
102
{ACAD_REACTORS
330
22D
102
}
330
22D
100
AcDbXrecord
 10
0.0
 20
0.0
 30
0.0
  0
XRECORD
  5
247
102
{ACAD_REACTORS
330
22D
102
}
330
22D
100
AcDbXrecord
 10
0.0
 20
0.0
 30
0.0
  0
XRECORD
  5
244
102
{ACAD_REACTORS
330
22D
102
}
330
22D
100
AcDbXrecord
340
0
  0
XRECORD
  5
245
102
{ACAD_REACTORS
330
22D
102
}
330
22D
100
AcDbXrecord
 70
     0
  0
XRECORD
  5
239
102
{ACAD_REACTORS
330
22D
102
}
330
22D
100
AcDbXrecord
  1
{8F25778A-C541-4576-929D-937C327CD5D3}
  0
ENDSEC
  0
EOF
